#TITLE:木马屠城记;
#SUBTITLE:;
#ARTIST:王心凌;
#TITLETRANSLIT:;
#SUBTITLETRANSLIT:;
#ARTISTTRANSLIT:;
#CREDIT:;
#BANNER:ľǼ_logo.jpg;
#BACKGROUND:ľǼ_bg.jpg;
#LYRICSPATH:;
#CDTITLE:Lan.png;
#MUSIC:ľǼ.mp3;
#OFFSET:-0.140;
#SAMPLESTART:100.000;
#SAMPLELENGTH:12.000;
#SELECTABLE:YES;
#BPMS:0.000=106.000;
#STOPS:;
#BGCHANGES:;
// cache tags:
#FIRSTBEAT:8.000;
#LASTBEAT:236.000;
#SONGFILENAME:Songs/Super Dancer Online/ľǼ/ľǼ.sm;
#HASMUSIC:1;
#HASBANNER:1;
#MUSICLENGTH:135.434;
// end cache tags

//---------------dance-single - sky----------------
#NOTES:
     dance-single:
     sky:
     Hard:
     9:
     0.687,1.000,0.879,0.059,0.362,515.000,119.000,8.000,0.000,9.000:

0000
0000
0000
0000
,
0000
0000
0000
0000
,
1000
0100
0010
0100
0001
0000
0000
0010
0000
0100
0001
1000
0100
0001
0000
0000
,
0010
0100
1000
0001
0100
0000
0000
0010
0000
0010
0100
1000
0001
0000
0000
0000
,
0010
0001
1000
0001
0100
0000
0000
1000
0000
0100
0001
0010
0100
0000
0000
0000
,
1000
0100
0010
0001
0010
0000
0000
0100
0000
0001
0010
0100
1000
0000
0000
0000
,
0201
0010
1000
0301
0010
0001
0100
0010
,
1000
0100
0010
0001
1000
0100
0010
0100
,
0001
1000
0010
0001
1000
0100
0010
0001
,
1000
0100
0001
0010
0100
0000
0000
0000
,
1011
0000
0100
0000
0011
0000
1000
0100
1000
0000
0001
0000
0100
0000
1000
0000
,
1001
0000
0010
0000
1100
0000
0010
0100
0001
0000
1000
0000
0001
0000
0100
0000
,
1011
0000
0100
0000
0011
0000
0100
0001
1000
0000
0010
0000
1000
0000
0001
0000
,
0100
0000
1000
0000
0010
0000
0100
1000
0001
0000
1000
0000
0001
0000
0100
0000
,
1001
0000
0010
0100
0001
1000
0100
1000
,
0001
0010
0100
1000
0100
0010
0001
1000
,
0010
0001
0100
1000
0001
1000
0010
0100
,
0001
0000
0100
0000
1000
0000
0010
0000
0001
0000
1000
0000
0001
0010
0001
0010
,
1101
0000
0100
0010
1000
0100
0001
0100
,
0010
1000
0010
0001
0100
1000
0010
0001
,
0010
1000
0010
0100
0001
0100
1000
0010
,
0001
0100
0010
1000
0010
0001
0100
0001
,
2110
0000
0001
0000
0100
0000
0010
3000
0001
0000
0100
0000
1000
0000
0100
0000
,
0011
1000
0010
0001
0100
0010
1000
0001
,
0110
0010
1000
0100
0001
0010
1000
0100
,
1011
0010
0100
0001
0100
0000
1000
0000
,
0001
0010
0001
0100
0001
0000
1000
0000
0010
0100
0001
0100
0001
0000
1000
0000
,
1000
0100
1000
0010
0100
0000
0001
0000
1000
0100
0010
1000
0001
0000
1000
0000
,
0100
1000
0100
0010
0001
0000
0100
0000
0001
0010
0001
0100
1000
0000
0010
0000
,
0100
0010
0001
0010
0001
0000
0100
0000
1000
0001
1000
0001
0100
0000
0010
0000
,
1101
0011
1100
0110
0011
0000
1100
0000
0011
0110
1100
0110
0011
0000
0110
0000
,
1001
0110
0011
1100
0011
0000
0011
0000
1100
0011
1010
0101
1010
0000
0110
0000
,
0011
1100
0011
1100
0011
0000
1001
0000
0110
1001
0110
1001
0110
0000
1001
0000
,
1100
0110
0011
0110
1100
0000
0011
0000
0100
0000
1000
0000
0010
0000
0000
0000
,
1000
0000
0100
0000
0010
0100
0010
0001
0010
0000
1000
0000
0100
1000
0100
0010
,
0001
0000
0100
0000
1000
0010
0100
0010
1000
0000
0100
0000
0010
0000
0000
0000
,
1100
0000
0011
0000
1010
0101
1010
0101
1010
0000
0110
0000
0101
1010
0101
1010
,
0101
0000
0110
0000
1100
0011
1100
0011
1100
0000
1010
0000
0101
0000
0000
0000
,
1000
0001
0100
0010
1000
0000
0000
0010
1000
0100
0001
1000
0100
0000
0000
0000
,
1000
0100
0010
0100
0001
0000
0000
0100
0001
0100
0001
1000
0100
0000
0000
0000
,
1000
0100
0010
0100
0001
0000
0000
0010
0001
0100
0010
1000
0100
0000
0000
0000
,
0001
0010
1000
0100
0010
0000
0000
0100
1000
0010
0001
0010
0001
0010
0001
0010
,
1100
0010
0100
0001
0010
1000
0010
0001
,
1000
0100
0001
0100
0010
1000
0001
0100
,
1000
0010
1000
0001
0100
0001
0010
0100
,
1000
0010
0100
0001
1000
0010
0100
0001
,
2011
0000
0100
0000
0001
0000
0010
0000
0100
0000
0010
0000
0001
0000
0010
3000
,
0102
0000
1000
0000
0010
0000
0100
0000
1000
0000
0010
0000
1000
0000
0010
0003
,
0210
0000
0001
0000
1000
0000
0010
0000
1000
0000
0010
0000
0001
0000
1000
0300
,
1020
0000
0001
0000
0100
0000
1000
0000
0100
0000
0001
0000
0100
0000
1000
0030
,
1001
0010
0001
0100
0010
1000
0100
0001
,
0010
1000
0010
0100
0001
0100
1000
0010
,
1101
0010
0100
0001
1000
0010
0100
0001
,
1000
0000
0001
0000
1100
0000
0011
0100
1000
0010
0001
1000
0100
0000
0010
0000
,
1100
0000
0011
0000
1100
0000
0101
1010
0101
0000
1001
0000
0110
0000
1001
0000
,
0110
0000
0011
0000
1100
0000
0101
1010
0101
0000
0011
0000
1100
0000
0000
0000
,
0101
0000
1010
0000
0101
0000
0110
1100
0011
0000
0110
0000
1100
0000
0011
0000
,
1100
0000
0110
0000
0011
0000
0110
0011
1100
0000
1011
0000
2020
0000
0000
0000
,
0000
0000
0000
0000
,
3030
0000
0000
0000
;
